Shakatak - Bitter Sweet (1991) (LOSSLESS)
MP3 FLAC WMA APE HD

Shakatak - Bitter Sweet (1991) (LOSSLESS)

Artist: Shakatak
Title Of Album: Bitter Sweet
Year Of Release: 1991
Label: Polydor
Genre: Jazz Funk, Smooth Jazz
Quality: FLAC (Img,cue,log,scans)
Bitrate: lossless
Total Time: 46:08 min
Total Size: 311 mb
TRACKLIST
1 Don't Start Giving Up 3:51
2 Blue 5:38
3 Bitter Sweet 4:26
4 Cool Down 4:32
5 Don't Look Back 4:14
6 They Call That Cool 4:53
7 Holding On 4:52
8 Fly Away 4:56
9 Shake It Down 4:34
10 You'll Never Know 4:18
Exact Audio Copy V0.99 prebeta 4 from 23. January 2008
EAC extraction logfile from 10. December 2009, 21:52
Shakatak / Bitter Sweet
Used drive : PIONEER DVD-RW DVR-105 Adapter: 0 ID: 1
Read mode : Secure
Utilize accurate stream : Yes
Defeat audio cache : Yes
Make use of C2 pointers : No
Read offset correction : 48
Overread into Lead-In and Lead-Out : No
Fill up missing offset samples with silence : Yes
Delete leading and trailing silent blocks : No
Null samples used in CRC calculations : Yes
Used interface : Installed external ASPI interface
Used output format : User Defined Encoder
Selected bitrate : 768 kBit/s
Quality : High
Add ID3 tag : No
Command line compressor : C:Program FilesExact Audio CopyFlacflac.exe
Additional command line options : -8 -V -T "ARTIST=%a" -T "TITLE=%t" -T "ALBUM=%g" -T "DATE=%y" -T "TRACKNUMBER=%n" -T "GENRE=%m" -T "COMMENT=%e" %s -o %d
TOC of the extracted CD
Track | Start | Length | Start sector | End sector
---------------------------------------------------------
1 | 0:00.00 | 3:51.37 | 0 | 17361
2 | 3:51.37 | 5:38.18 | 17362 | 42729
3 | 9:29.55 | 4:25.50 | 42730 | 62654
4 | 13:55.30 | 4:31.40 | 62655 | 83019
5 | 18:26.70 | 4:14.10 | 83020 | 102079
6 | 22:41.05 | 4:52.55 | 102080 | 124034
7 | 27:33.60 | 4:52.20 | 124035 | 145954
8 | 32:26.05 | 4:55.67 | 145955 | 168146
9 | 37:21.72 | 4:33.38 | 168147 | 188659
10 | 41:55.35 | 4:17.57 | 188660 | 207991
Range status and errors
Selected range
Filename C:Shakatak - Bitter SweetShakatak - Bitter Sweet.wav
Peak level 93.6 %
Range quality 100.0 %
Test CRC 5C5B8F2F
Copy CRC 5C5B8F2F
Copy OK
No errors occurred

AccurateRip summary

Track 1 accurately ripped (confidence 2) [A7D4128E]
Track 2 accurately ripped (confidence 2) [768F9856]
Track 3 accurately ripped (confidence 2) [91D1080D]
Track 4 accurately ripped (confidence 2) [3EDA413C]
Track 5 accurately ripped (confidence 2) [6835F90D]
Track 6 accurately ripped (confidence 2) [57BBAF00]
Track 7 accurately ripped (confidence 2) [A4EE66EB]
Track 8 accurately ripped (confidence 2) [FB380A9C]
Track 9 accurately ripped (confidence 2) [0B915D12]
Track 10 accurately ripped (confidence 2) [FA420891]

All tracks accurately ripped
End of status report
Download
If links are broken please send me PM



Alternative download links

Uploaded

Related MP3 FLAC to Shakatak - Bitter Sweet (1991) (LOSSLESS)
Feedback
All rights reserved.
WEBBG.com © 2000-2018