Miles Davis - Ballads (1988)
MP3 FLAC WMA APE HD

Miles Davis - Ballads (1988)

  • Genre: Music, Jazz, FLAC / APE
  • Formats: MP3 FLAC WMA HD APE
  • Album Size: 1565 mb.
  • Archive: ZIP RAR
Artist: Miles Davis
Title Of Album: Ballads
Year Of Release: 1988
Label: CBS Records, Inc.
Genre: Jazz, Hard Bop
Quality: WAVPack (image+.cue) + log
Bitrate: Lossless
Total Time: 47:32
Total Size: 267 Mb
Tracklist:
01. Baby Won't You Please Come Home - 8:28
02. Once Upon a Summertime - 3:28
03. I Fall In Love Too Easily - 6:48
04. Song #2 - 1:37
05. Bye Bye Blackbird - 9:54
06. Wait Till You See Her - 4:05
07. Basin Street Blues - 10:30
08. Corcovado - 2:42
Exact Audio Copy V0.99 prebeta 5 from 4. May 2009
EAC extraction logfile from 11. March 2010, 22:00
Miles Davis / Ballads
Used drive : HL-DT-STDVD-RAM GSA-H55N Adapter: 0 ID: 2
Read mode : Secure
Utilize accurate stream : Yes
Defeat audio cache : Yes
Make use of C2 pointers : No
Read offset correction : 102
Overread into Lead-In and Lead-Out : No
Fill up missing offset samples with silence : Yes
Delete leading and trailing silent blocks : No
Null samples used in CRC calculations : Yes
Used interface : Installed external ASPI interface
Used output format : User Defined Encoder
Selected bitrate : 128 kBit/s
Quality : High
Add ID3 tag : No
Command line compressor : G:Program FilesExact Audio CopyEncoderwavpack.exe
Additional command line options : -hm -w "Year=%y" -w "Genre=%m" %s %d
TOC of the extracted CD
Track | Start | Length | Start sector | End sector
---------------------------------------------------------
1 | 0:00.00 | 8:28.25 | 0 | 38124
2 | 8:28.25 | 3:27.50 | 38125 | 53699
3 | 11:56.00 | 6:47.50 | 53700 | 84274
4 | 18:43.50 | 1:37.00 | 84275 | 91549
5 | 20:20.50 | 9:54.00 | 91550 | 136099
6 | 30:14.50 | 4:04.70 | 136100 | 154469
7 | 34:19.45 | 10:29.72 | 154470 | 201716
8 | 44:49.42 | 2:42.08 | 201717 | 213874
Range status and errors
Selected range
Filename F:WAVMiles Davis - Ballads.wav
Peak level 91.0 %
Range quality 100.0 %
Test CRC 4FB24FA6
Copy CRC 4FB24FA6
Copy OK
No errors occurred
AccurateRip summary
Track 1 accurately ripped (confidence 12) [287168E4]
Track 2 accurately ripped (confidence 12) [2EC6212F]
Track 3 accurately ripped (confidence 12) [28123ACE]
Track 4 accurately ripped (confidence 12) [D328FBAD]
Track 5 accurately ripped (confidence 12) [042CE045]
Track 6 accurately ripped (confidence 12) [BB0A54DD]
Track 7 accurately ripped (confidence 12) [AF1FC756]
Track 8 accurately ripped (confidence 12) [7A480EDE]
All tracks accurately ripped
End of status report
FileSonic.com
Turbobit.net



Alternative download links

DOWNLOAD

Related MP3 FLAC to Miles Davis - Ballads (1988)
Feedback
All rights reserved.
WEBBG.com © 2000-2018