Zero Cult - Art of Harmony (2006)
MP3 FLAC WMA APE HD

Zero Cult - Art of Harmony (2006)

Artist: Zero Cult
Title Of Album: Art of Harmony
Year Of Release: 2006
Label: Cosmicleaf Records
Genre: Chillout, Ambient, Downtempo
Quality: FLAC (Img,cue,log,scans)
Bitrate: lossless
Total Time: 01:08:26 min
Total Size: 430 mb
TRACKLIST
01. Neokarma [06:58]
02. X-Space [07:16]
03. Blue Harmony [08:52]
04. Reflections (Side Liner remix) [04:59]
05. Flow [08:00]
06. P-Ray (Cydelix remix) [06:31]
07. Aura Zero [06:49]
08. Night Out (D. Batistatos remix) [04:38]
09. Monolife [07:38]
10. Irreversible Moving [06:45]
Exact Audio Copy V1.0 beta 1 from 15. November 2010
EAC extraction logfile from 24. December 2010, 19:50
Zero Cult / Art of Harmony
Used drive : SlimtypeDVD A DS8A4S Adapter: 1 ID: 0
Read mode : Secure
Utilize accurate stream : Yes
Defeat audio cache : Yes
Make use of C2 pointers : No
Read offset correction : 6
Overread into Lead-In and Lead-Out : No
Fill up missing offset samples with silence : Yes
Delete leading and trailing silent blocks : No
Null samples used in CRC calculations : Yes
Used interface : Native Win32 interface for Win NT & 2000
Used output format : User Defined Encoder
Selected bitrate : 896 kBit/s
Quality : High
Add ID3 tag : No
Command line compressor : C:Program FilesFLACflac.exe
Additional command line options : -8 -V %s
TOC of the extracted CD
Track | Start | Length | Start sector | End sector
---------------------------------------------------------
1 | 0:00.00 | 6:58.50 | 0 | 31399
2 | 6:58.50 | 7:15.56 | 31400 | 64080
3 | 14:14.31 | 8:52.00 | 64081 | 103980
4 | 23:06.31 | 4:58.58 | 103981 | 126388
5 | 28:05.14 | 8:00.60 | 126389 | 162448
6 | 36:05.74 | 6:30.02 | 162449 | 191700
7 | 42:36.01 | 6:49.07 | 191701 | 222382
8 | 49:25.08 | 4:38.11 | 222383 | 243243
9 | 54:03.19 | 7:37.63 | 243244 | 277581
10 | 61:41.07 | 6:45.33 | 277582 | 307989
Range status and errors
Selected range
Filename D:MusicCosmicleaf Records5 - Zero Cult - 2006 - Art of Harmony [Cosmicleaf; CLCD05]Zero Cult - Art of Harmony.wav
Peak level 97.7 %
Extraction speed 0.5 X
Range quality 100.0 %
Copy CRC 7A4B7BF9
Copy OK
No errors occurred

AccurateRip summary

Track 1 accurately ripped (confidence 5) [0CAEBCA7]
Track 2 accurately ripped (confidence 5) [80338582]
Track 3 accurately ripped (confidence 5) [23AD930C]
Track 4 accurately ripped (confidence 5) [37A7564A]
Track 5 accurately ripped (confidence 5) [1A1C2D86]
Track 6 accurately ripped (confidence 5) [97998EC7]
Track 7 accurately ripped (confidence 5) [BFE06964]
Track 8 accurately ripped (confidence 5) [61517D75]
Track 9 accurately ripped (confidence 5) [DCD90AB4]
Track 10 accurately ripped (confidence 5) [C746C905]

All tracks accurately ripped
End of status report
Download




Alternative download links

Uploaded

Related MP3 FLAC to Zero Cult - Art of Harmony (2006)
Feedback
All rights reserved.
WEBBG.com © 2000-2018