Tom Kenyon - Songs of Magdalen (2006)
MP3 FLAC WMA APE HD

Tom Kenyon - Songs of Magdalen (2006)

Artist: Tom Kenyon
Title Of Album: Songs of Magdalen
Year Of Release: 2006
Label: Sounds True, USA
Genre: New Age, Meditative, Healing, Channeling
Quality: FLAC (image+.cue) + log
Bitrate: Lossless
Total Time: 55:16
Total Size: 261 Mb
Tracklist:
01. The Meeting at the Well (4:17)
02. I and My Beloved (8:36)
03. Sar'h's Song (3:27)
04. The Skies over Jerusalem (2:54)
05. Maries de la Mer (6:18)
06. An Offering to Venus (5:45)
07. Shekina (5:36)
08. The Calling of Andrion (Healing Angel) (7:27)
09. In the Company of Angels (7:48)
10. From the Heart of Isis (3:09)
Exact Audio Copy V0.99 prebeta 5 from 4. May 2009
EAC extraction logfile from 19. January 2010, 22:48
Tom Kenyon / Songs of Magdalen
Used drive : PIONEER DVD-RW DVR-215D Adapter: 2 ID: 1
Read mode : Secure
Utilize accurate stream : Yes
Defeat audio cache : Yes
Make use of C2 pointers : No
Read offset correction : 48
Overread into Lead-In and Lead-Out : No
Fill up missing offset samples with silence : Yes
Delete leading and trailing silent blocks : No
Null samples used in CRC calculations : Yes
Used interface : Installed external ASPI interface
Used output format : User Defined Encoder
Selected bitrate : 320 kBit/s
Quality : High
Add ID3 tag : No
Command line compressor : C:Program FilesFLACflac.exe
Additional command line options : -8 -V -T "ARTIST=%a" -T "ALBUM=%g" -T "DATE=%y" -T "GENRE=%m" %s -o %d
TOC of the extracted CD
Track | Start | Length | Start sector | End sector
---------------------------------------------------------
1 | 0:00.00 | 4:16.39 | 0 | 19238
2 | 4:16.39 | 8:36.36 | 19239 | 57974
3 | 12:53.00 | 3:26.62 | 57975 | 73486
4 | 16:19.62 | 2:53.65 | 73487 | 86526
5 | 19:13.52 | 6:18.18 | 86527 | 114894
6 | 25:31.70 | 5:44.60 | 114895 | 140754
7 | 31:16.55 | 5:35.50 | 140755 | 165929
8 | 36:52.30 | 7:26.66 | 165930 | 199445
9 | 44:19.21 | 7:47.47 | 199446 | 234517
10 | 52:06.68 | 3:08.53 | 234518 | 248670
Range status and errors
Selected range
Filename D:torrentripped by boccadorTom Kenyon - Songs of MagdalenTom Kenyon - Songs of Magdalen.wav
Peak level 98.8 %
Range quality 100.0 %
Test CRC C24508E6
Copy CRC C24508E6
Copy OK
No errors occurred
AccurateRip summary
Track 1 accurately ripped (confidence 1) [AA128B70]
Track 2 accurately ripped (confidence 1) [F01AC9E9]
Track 3 accurately ripped (confidence 1) [8BA1E9F8]
Track 4 accurately ripped (confidence 1) [51C469AB]
Track 5 accurately ripped (confidence 1) [B5FBB777]
Track 6 accurately ripped (confidence 1) [BFEF149B]
Track 7 accurately ripped (confidence 1) [B7873F04]
Track 8 accurately ripped (confidence 1) [8DDFB495]
Track 9 accurately ripped (confidence 1) [2D00AB38]
Track 10 accurately ripped (confidence 1) [FD479CA9]
All tracks accurately ripped
End of status report
FileSonic.com
Turbobit.net



Alternative download links

DOWNLOAD

Related MP3 FLAC to Tom Kenyon - Songs of Magdalen (2006)
Feedback
All rights reserved.
WEBBG.com © 2000-2018