Esbjörn Svensson Trio (E.S.T.) - When Everyone Has Gone (1993)
MP3 FLAC WMA APE HD

Esbjörn Svensson Trio (E.S.T.) - When Everyone Has Gone (1993)

  • Genre: Music, Jazz, FLAC / APE
  • Formats: MP3 FLAC WMA HD APE
  • Album Size: 1902 mb.
  • Archive: ZIP RAR
Artist: Esbjörn Svensson Trio (E.S.T.)
Title Of Album: When Everyone Has Gone
Year Of Release: 1993
Label: Dragon
Genre: jazz, post-bop
Quality: FLAC
Bitrate: lossless
Total Time: 1:05:56
Total Size: 353 mb
Tracklist:
01. When Everyone Has Gone;
02. Fingertrip;
03. Free Four;
04. Stella by Starlight;
05. 4 Am;
06. Mohammed Goes to New York, Pt. 1;
07. Mohammed Goes to New York, Pt. 2;
08. Waltz for the Lonely Ones;
09. Silly Walk;
10. Tough Tough;
11. Hands Off.
Exact Audio Copy V0.99 prebeta 4 from 23. January 2008
EAC extraction logfile from 3. March 2009, 17:03
Esbjorn Svensson Trio / When Everyone Has Gone
Used drive : HL-DT-STDVD-RAM GSA-H58N Adapter: 0 ID: 1
Read mode : Secure
Utilize accurate stream : Yes
Defeat audio cache : Yes
Make use of C2 pointers : No
Read offset correction : 102
Overread into Lead-In and Lead-Out : No
Fill up missing offset samples with silence : Yes
Delete leading and trailing silent blocks : No
Null samples used in CRC calculations : Yes
Used interface : Installed external ASPI interface
Used output format : Internal WAV Routines
Sample format : 44.100 Hz; 16 Bit; Stereo
TOC of the extracted CD
Track | Start | Length | Start sector | End sector
---------------------------------------------------------
1 | 0:00.00 | 6:43.02 | 0 | 30226
2 | 6:43.02 | 8:30.15 | 30227 | 68491
3 | 15:13.17 | 6:42.63 | 68492 | 98704
4 | 21:56.05 | 8:26.15 | 98705 | 136669
5 | 30:22.20 | 5:30.00 | 136670 | 161419
6 | 35:52.20 | 4:14.45 | 161420 | 180514
7 | 40:06.65 | 5:41.20 | 180515 | 206109
8 | 45:48.10 | 3:58.05 | 206110 | 223964
9 | 49:46.15 | 5:34.50 | 223965 | 249064
10 | 55:20.65 | 4:17.42 | 249065 | 268381
11 | 59:38.32 | 6:17.58 | 268382 | 296714
Range status and errors
Selected range
Filename G:ripEsbjorn Svensson Trio - When Everyone Has Gone.wav
Peak level 100.0 %
Copy CRC 9E22CB8E
Copy OK
No errors occurred
AccurateRip summary
Track 1 accurately ripped (confidence 4) [7B777584]
Track 2 accurately ripped (confidence 4) [97D70D58]
Track 3 accurately ripped (confidence 4) [295AB362]
Track 4 accurately ripped (confidence 4) [F93AFF88]
Track 5 accurately ripped (confidence 4) [719B8D5C]
Track 6 accurately ripped (confidence 4) [86CEC773]
Track 7 accurately ripped (confidence 4) [4204C8D9]
Track 8 accurately ripped (confidence 4) [A82F3173]
Track 9 accurately ripped (confidence 4) [D51A17D6]
Track 10 accurately ripped (confidence 4) [8D68E433]
Track 11 accurately ripped (confidence 4) [A24A249C]
All tracks accurately ripped
End of status report




Alternative download links

hotfile.com fileserve.com

Related MP3 FLAC to Esbjörn Svensson Trio (E.S.T.) - When Everyone Has Gone (1993)
Feedback
All rights reserved.
WEBBG.com © 2000-2018