Fleetwood Mac - Heroes Are Hard To Find (19742017) HDtracks
MP3 FLAC WMA APE HD

Fleetwood Mac - Heroes Are Hard To Find (19742017) HDtracks

Artist: Fleetwood Mac
Title: Heroes Are Hard To Find
Year Of Release: 2017 (1974-09-13)
Label: Rhino / Warner Bros. Records
Genre: Pop/Rock, Blues Rock
Quality: FLAC (tracks) [24Bit/192kHz]
Total Time: 39:50
Total Size: 1,56 Gb (Front Cover)
WebSite:

"Heroes Are Hard to Find" is the ninth studio album by British-American rock band Fleetwood Mac, released on 13 September 1974. This is the last album with Bob Welch, who left at the end of 1974, and was replaced by Lindsey Buckingham and Stevie Nicks. It was the first Fleetwood Mac studio album properly recorded in the US as well as the first to enter the Billboard top 40 albums chart. The title track was edited and issued as a single but it failed to chart. ~Wikipedia~
Although this was Bob Welch's last album with the band he had worked with since 1971, it sounds like he's at his peak. Pared down to a foursome for the first and (as of 2002) only time since the addition of Danny Kirwan, both Welch and Christine McVie contribute some of their finest songs. Bolstered by sympathetic self-production and imaginative, often aggressive arrangements that include brassy horns on the title track (a blatant but failed attempt at a hit single), the album is one of their most cohesive yet diverse. Welch continues his fascination with UFOs in a sort of follow-up to Mystery to Me's "Hypnotized" called "Bermuda Triangle" and even heads into a spacy Hendrix "Third Stone From the Sun" groove on "Coming Home." Christine McVie is in wonderful voice on her own ballads like "Prove Your Love" but outdoes herself on the magnificent "Come a Little Bit Closer," a stunning track whose grandeur is heightened by strings and McVie's majestic piano. It's a hidden classic and pedal steel by the Flying Burrito Brothers' Sneaky Pete Kleinow is an unexpected and perfect addition to the album's most fully realized tune. Welch's folk-pop "She's Changing Me" is one of his most upbeat, memorable melodies, offset by the rocker "Silver Heels" and his closing "Safe Harbor," a knowing nod back to Peter Green's atmospheric work on "Albatross" and his contributions to Then Play On. McVie's haunting rocker "Bad Loser" is reinforced by the propulsive rhythm section of Mick Fleetwood and John McVie, both adding tense bite to even the most tender of ballads. Welch left soon after the album's release, and the group went on to bigger and better things, but Heroes is a minor gem that retains its effortless pop charms and contains some buried jewels in the extensive Fleetwood Mac catalog. ~Review by Hal Horowitz~
Release of the album: 1974, September, 13 [LP Reprise Records, Cat.# K54026, UK]
Release of this HDtracks edition: 2017 [Label: Rhino/Warner Bros. Records]
Note: Digitally Remastered
(p) 1974 Reprise Records. Marketed by Rhino Entertainment Company, a Warner Music Group Company.
(c) 1974 Reprise Records.
Credits:
Arranged By [Strings & Horns] – Nick De Caro
Bass – John McVie
Design [Album Design] – Des Strobel
Drums, Percussion – Mick Fleetwood
Engineer – Bob Hughes
Engineer [Assistant] – Doug Graves
Guitar, Vocals, Vibraphone – Bob Welch
Keyboards, Vocals, Synthesizer [Arp String Ensemble] – Christine McVie
Photography By – Herbert Worthington
Producer – Bob Hughes, Fleetwood Mac
Written-By – R. Welch (tracks: 2 to 4, 6, 8, 10, 11), C. McVi (tracks: 1, 5, 7, 9)

Tracklist:
01. Heroes Are Hard To Find (03:36)
02. Coming Home (03:54)
03. Angel (03:57)
04. Bermuda Triangle (04:10)
05. Come A Little Bit Closer (04:51)
06. She's Changing Me (03:00)
07. Bad Loser (03:27)
08. Silver Heels (03:29)
09. Prove Your Love (04:00)
10. Born Enchanter (02:56)
11. Safe Harbour (02:31)
--------------------------------------------------------------------------------
Analyzed: Fleetwood Mac / Heroes Are Hard To Find
––––––––––––––––––––––––––––––––––––––––
DR Peak RMS Duration Track
––––––––––––––––––––––––––––––––––––––––
DR10 -0.10 dB -11.75 dB 3:36 01-Heroes Are Hard To Find
DR10 -0.01 dB -12.16 dB 3:54 02-Coming Home
DR10 -0.01 dB -11.78 dB 3:57 03-Angel
DR11 -0.01 dB -12.97 dB 4:10 04-Bermuda Triangle
DR10 -0.01 dB -11.43 dB 4:51 05-Come A Little Bit Closer
DR10 -0.01 dB -11.78 dB 3:00 06-She's Changing Me
DR10 -0.01 dB -12.40 dB 3:27 07-Bad Loser
DR10 -0.01 dB -11.80 dB 3:29 08-Silver Heels
DR10 -0.01 dB -11.03 dB 4:00 09-Prove Your Love
DR10 -0.01 dB -11.99 dB 2:56 10-Born Enchanter
DR12 -0.01 dB -15.64 dB 2:31 11-Safe Harbour
––––––––––––––––––––––––––––––––––––––––
Number of tracks: 11
Official DR value: DR10
Samplerate: 192000 Hz
Channels: 2
Bits per sample: 24
Bitrate: 5038 kbps
Codec: FLAC
================================================================================
FLAC 24/192 DOWNLOAD ~ Download 24/192 FLAC
|
password: BlondStyle



Alternative download links

Part 1 Part 2

Related MP3 FLAC to Fleetwood Mac - Heroes Are Hard To Find (19742017) HDtracks
Feedback
All rights reserved.
WEBBG.com © 2000-2018