Steppenwolf - At Your Birthday Party (1969)
MP3 FLAC WMA APE HD

Steppenwolf - At Your Birthday Party (1969)

Artist: Steppenwolf
Title Of Album: At Your Birthday Party
Year Of Release: 1969
Label: MCA Records, MCAD-1668
Genre: Hard/Psychedelic/Blues Rock
Quality: Lossless | MP3
Bitrate: FLAC tracks + cue | 320 kbps CBR
Total Time: 00:41:31
Total Size: 229 MB (+3%)
At Your Birthday Party is the third studio album by Steppenwolf, released in 1969. It containes a few well-known hits, such as "It's Never Too Late" and "Jupiter's Child", as well as the colossal "Rock Me". Certified as Gold album.
Tracklist
1. Don't Cry [03:12]
2. Chicken Wolf [02:59]
3. Lovely Meter [03:11]
4. Round And Down [03:19]
5. It's Never Too Late [04:07]
6. Sleeping Dreaming [01:08]
7. Jupiter Child [03:29]
8. She'll Be Better [05:32]
9. Cat Killer [01:37]
10. Rock Me [03:45]
11. God Fearing Man [03:55]
12. Mango Juice [03:01]
13. Happy Birthday [02:16]
Total time 00:41:31
Exact Audio Copy V0.99 prebeta 4 from 23. January 2008
EAC extraction logfile from 4. May 2009, 21:35
Steppenwolf / At Your Birthday Party
Used drive : HL-DT-STDVD-ROM GDR8163B Adapter: 0 ID: 0
Read mode : Secure
Utilize accurate stream : Yes
Defeat audio cache : Yes
Make use of C2 pointers : No
Read offset correction : 102
Overread into Lead-In and Lead-Out : No
Fill up missing offset samples with silence : Yes
Delete leading and trailing silent blocks : No
Null samples used in CRC calculations : Yes
Used interface : Installed external ASPI interface
Gap handling : Appended to previous track
Used output format : Internal WAV Routines
Sample format : 44.100 Hz; 16 Bit; Stereo
TOC of the extracted CD
Track | Start | Length | Start sector | End sector
---------------------------------------------------------
1 | 0:00.00 | 3:11.45 | 0 | 14369
2 | 3:11.45 | 2:58.57 | 14370 | 27776
3 | 6:10.27 | 3:10.43 | 27777 | 42069
4 | 9:20.70 | 3:19.15 | 42070 | 57009
5 | 12:40.10 | 4:07.25 | 57010 | 75559
6 | 16:47.35 | 1:07.47 | 75560 | 80631
7 | 17:55.07 | 3:28.53 | 80632 | 96284
8 | 21:23.60 | 5:32.20 | 96285 | 121204
9 | 26:56.05 | 1:37.27 | 121205 | 128506
10 | 28:33.32 | 3:45.10 | 128507 | 145391
11 | 32:18.42 | 3:55.33 | 145392 | 163049
12 | 36:14.00 | 3:01.27 | 163050 | 176651
13 | 39:15.27 | 2:16.18 | 176652 | 186869
Track 1
Filename C:My MusicSteppenwolf - At Your Birthday Party(FLAC)1 - Don't Cry.wav
Pre-gap length 0:00:02.00
Peak level 87.4 %
Track quality 99.9 %
Test CRC 2D2EE86A
Copy CRC 2D2EE86A
Accurately ripped (confidence 6) [8B3AFFC1]
Copy OK
Track 2
Filename C:My MusicSteppenwolf - At Your Birthday Party(FLAC)2 - Chicken Wolf.wav
Pre-gap length 0:00:04.84
Peak level 84.6 %
Track quality 100.0 %
Test CRC 012F807D
Copy CRC 012F807D
Accurately ripped (confidence 6) [C9B98602]
Copy OK
Track 3
Filename C:My MusicSteppenwolf - At Your Birthday Party(FLAC)3 - Lovely Meter.wav
Pre-gap length 0:00:03.40
Peak level 64.2 %
Track quality 99.9 %
Test CRC 090BF706
Copy CRC 090BF706
Accurately ripped (confidence 6) [ED9FDCD3]
Copy OK
Track 4
Filename C:My MusicSteppenwolf - At Your Birthday Party(FLAC)4 - Round And Down.wav
Pre-gap length 0:00:04.33
Peak level 79.0 %
Track quality 100.0 %
Test CRC D07DD25D
Copy CRC D07DD25D
Accurately ripped (confidence 6) [F19036D8]
Copy OK
Track 5
Filename C:My MusicSteppenwolf - At Your Birthday Party(FLAC)5 - It's Never Too Late.wav
Pre-gap length 0:00:04.30
Peak level 71.0 %
Track quality 100.0 %
Test CRC 0C3D9BE7
Copy CRC 0C3D9BE7
Accurately ripped (confidence 6) [290C7A4F]
Copy OK
Track 6
Filename C:My MusicSteppenwolf - At Your Birthday Party(FLAC)6 - Sleeping Dreaming.wav
Pre-gap length 0:00:04.60
Peak level 54.2 %
Track quality 100.0 %
Test CRC F19442E5
Copy CRC F19442E5
Accurately ripped (confidence 6) [F999C201]
Copy OK
Track 7
Filename C:My MusicSteppenwolf - At Your Birthday Party(FLAC)7 - Jupiter Child.wav
Pre-gap length 0:00:02.89
Peak level 79.5 %
Track quality 100.0 %
Test CRC E7BF0369
Copy CRC E7BF0369
Accurately ripped (confidence 6) [38DC40C8]
Copy OK
Track 8
Filename C:My MusicSteppenwolf - At Your Birthday Party(FLAC)8 - She'll Be Better.wav
Pre-gap length 0:00:04.13
Peak level 79.6 %
Track quality 100.0 %
Test CRC 7FE6F8A6
Copy CRC 7FE6F8A6
Accurately ripped (confidence 6) [6A496F87]
Copy OK
Track 9
Filename C:My MusicSteppenwolf - At Your Birthday Party(FLAC)9 - Cat Killer.wav
Pre-gap length 0:00:04.33
Peak level 68.8 %
Track quality 100.0 %
Test CRC 173CC2C9
Copy CRC 173CC2C9
Accurately ripped (confidence 6) [F4361868]
Copy OK
Track 10
Filename C:My MusicSteppenwolf - At Your Birthday Party(FLAC)10 - Rock Me.wav
Pre-gap length 0:00:05.02
Peak level 77.1 %
Track quality 99.9 %
Test CRC 0361DF90
Copy CRC 0361DF90
Accurately ripped (confidence 6) [2355371B]
Copy OK
Track 11
Filename C:My MusicSteppenwolf - At Your Birthday Party(FLAC)11 - God Fearing Man.wav
Pre-gap length 0:00:06.53
Peak level 77.3 %
Track quality 99.9 %
Test CRC 61EF79C1
Copy CRC 61EF79C1
Accurately ripped (confidence 6) [4A33F8A8]
Copy OK
Track 12
Filename C:My MusicSteppenwolf - At Your Birthday Party(FLAC)12 - Mango Juice.wav
Pre-gap length 0:00:04.70
Peak level 54.2 %
Track quality 100.0 %
Test CRC 5325C658
Copy CRC 5325C658
Accurately ripped (confidence 6) [5812B424]
Copy OK
Track 13
Filename C:My MusicSteppenwolf - At Your Birthday Party(FLAC)13 - Happy Birthday.wav
Peak level 68.8 %
Track quality 100.0 %
Test CRC EC3DCB1F
Copy CRC EC3DCB1F
Accurately ripped (confidence 6) [272B3835]
Copy OK
All tracks accurately ripped
No errors occurred
End of status report
Download:
(fileserve.com)
|
(hotfile.com)
|
(letitbit.net)
|

Download MP3:
, ,




Alternative download links

Download part 1 Download part 2 Download part 1 Download part 2 Download part 1 Download part 2 fileserve.com hotfile.com letitbit.net

Related MP3 FLAC to Steppenwolf - At Your Birthday Party (1969)
Feedback
All rights reserved.
WEBBG.com © 2000-2018