Ken Davis - Spirit of The Pan Flute (1996)
MP3 FLAC WMA APE HD

Ken Davis - Spirit of The Pan Flute (1996)

Artist: Ken Davis
Title Of Album: Spirit of The Pan Flute
Year Of Release: 1996
Label: Inspired Music
Genre: Pan Flute, New Age, Relax, Nature
Quality: FLAC (tracks+.cue) + log
Bitrate: Lossless
Total Time: 51:17
Total Size: 304 Mb
Ken Davis is one of the worlds most celebrated composers of healing, relaxation, ambient and environmental music with more than 45 CD'S to his credit. His CD'S and DVD'S are available on the web including digital downloads. His beautiful melodies and nature sounds heal mind body and spirit as well as provide relief from stress and tension. People world wide use his music for study as well as an aid to sleep and for pure listening pleasure. He is one of Australia's modern day composers.
Tracklist:
1. Kakadu (Northern Territory) ... 10:11
2. Celebration Of Sydney (Sydney New South Wales) ... 6:17
3. Great Barrier Reef (Queensland) ... 9:09
4. Uluru (Northern Territory) ... 4:04
5. Blue Mountanis In The Mist (Katoomba New South Wales) ... 3:21
6. Friendly Dolphins (Monkey Mia Western Australia) ... 4:03
7. Whale Sanctuary (Harvey Bay Queensland) ... 4:40
8. Magic Of Kuranda (Cairns Queensland) ... 4:43
9. Spirit Of Australia (Australia) ... 4:43
Exact Audio Copy V0.99 prebeta 5 from 4. May 2009
EAC extraction logfile from 17. August 2010, 8:28
Ken Davis / Spirit of The Pan Flute - Australia
Used drive : PLEXTOR DVDR PX-800A Adapter: 0 ID: 0
Read mode : Secure
Utilize accurate stream : Yes
Defeat audio cache : Yes
Make use of C2 pointers : No
Read offset correction : 48
Overread into Lead-In and Lead-Out : No
Fill up missing offset samples with silence : Yes
Delete leading and trailing silent blocks : No
Null samples used in CRC calculations : Yes
Used interface : Native Win32 interface for Win NT & 2000
Gap handling : Appended to previous track
Used output format : User Defined Encoder
Selected bitrate : 1024 kBit/s
Quality : High
Add ID3 tag : No
Command line compressor : C:Program FilesExact Audio CopyFLACFLAC.EXE
Additional command line options : -6 -V -T "ARTIST=%a" -T "TITLE=%t" -T "ALBUM=%g" -T "DATE=%y" -T "TRACKNUMBER=%n" -T "GENRE=%m" -T "COMMENT=%e" %s -o %d
TOC of the extracted CD
Track | Start | Length | Start sector | End sector
---------------------------------------------------------
1 | 0:00.32 | 10:11.30 | 32 | 45886
2 | 10:11.62 | 6:17.20 | 45887 | 74181
3 | 16:29.07 | 9:09.58 | 74182 | 115414
4 | 25:38.65 | 4:04.55 | 115415 | 133769
5 | 29:43.45 | 3:21.67 | 133770 | 148911
6 | 33:05.37 | 4:03.63 | 148912 | 167199
7 | 37:09.25 | 4:40.00 | 167200 | 188199
8 | 41:49.25 | 4:43.37 | 188200 | 209461
9 | 46:32.62 | 4:43.08 | 209462 | 230694
Track 1
Filename C:Temp1. Kakadu (Northern Territory).wav
Pre-gap length 0:00:02.42
Peak level 100.0 %
Track quality 100.0 %
Test CRC 9CA3A32A
Copy CRC 9CA3A32A
Track not present in AccurateRip database
Copy OK
Track 2
Filename C:Temp2. Celebration Of Sydney (Sydney New South Wales).wav
Peak level 69.6 %
Track quality 100.0 %
Test CRC 3DF9B0C7
Copy CRC 3DF9B0C7
Track not present in AccurateRip database
Copy OK
Track 3
Filename C:Temp3. Great Barrier Reef (Queensland).wav
Peak level 81.0 %
Track quality 100.0 %
Test CRC 052163CD
Copy CRC 052163CD
Track not present in AccurateRip database
Copy OK
Track 4
Filename C:Temp4. Uluru (Northern Territory).wav
Peak level 62.7 %
Track quality 99.9 %
Test CRC 3BD3AEDA
Copy CRC 3BD3AEDA
Track not present in AccurateRip database
Copy OK
Track 5
Filename C:Temp5. Blue Mountanis In The Mist (Katoomba New South Wales).wav
Peak level 100.0 %
Track quality 99.9 %
Test CRC 353C87F6
Copy CRC 353C87F6
Track not present in AccurateRip database
Copy OK
Track 6
Filename C:Temp6. Friendly Dolphins (Monkey Mia Western Australia).wav
Peak level 51.7 %
Track quality 100.0 %
Test CRC 621F8DB1
Copy CRC 621F8DB1
Track not present in AccurateRip database
Copy OK
Track 7
Filename C:Temp7. Whale Sanctuary (Harvey Bay Queensland).wav
Peak level 52.9 %
Track quality 100.0 %
Test CRC 16989CAA
Copy CRC 16989CAA
Track not present in AccurateRip database
Copy OK
Track 8
Filename C:Temp8. Magic Of Kuranda (Cairns Queensland).wav
Peak level 78.5 %
Track quality 100.0 %
Test CRC CAF2016C
Copy CRC CAF2016C
Track not present in AccurateRip database
Copy OK
Track 9
Filename C:Temp9. Spirit Of Australia (Australia).wav
Peak level 84.0 %
Track quality 100.0 %
Test CRC DDCB5AF8
Copy CRC DDCB5AF8
Track not present in AccurateRip database
Copy OK
None of the tracks are present in the AccurateRip database
No errors occurred
End of status report
FileSonic
Wupload



Alternative download links

DOWNLOAD

Related MP3 FLAC to Ken Davis - Spirit of The Pan Flute (1996)
Feedback
All rights reserved.
WEBBG.com © 2000-2018