Easily Embarrassed - Idyllic Life (2008) FLAC
MP3 FLAC WMA APE HD

Easily Embarrassed - Idyllic Life (2008) FLAC


Performer: Easily Embarrassed
Album: Idyllic Life
Label: Cardamar Music
Genre: Ambient
Year: 2008
Format: FLAC (tracks + .cue)
Bitrate: lossless
Covers: in archive
Amount of tracks: 09
Size RAR: ~ 392 mb
Upload: letitbit.net, depositfiles.com
Recovery: 3%
Password: without a password
Tracklist:
-----------------
01. Time Holes (5:51)
02. Idyllic Life (7:36)
03. Little Trees And Mysteries (7:14)
04. From Water To Life (4:16)
05. Phenomenon (7:10)
06. Blood (6:30)
07. Mental Anguish (9:32)
08. Reincarnation (7:45)
09. Past Memories (3:57)
--------------------------
Total time [59:51]
Exact Audio Copy V0.99 prebeta 3 from 28. July 2007
EAC extraction logfile from 30. July 2008, 20:43
Easily Embarrassed / idyllic life
Used drive : _NEC DVD_RW ND-3540A Adapter: 0 ID: 2
Read mode : Secure
Utilize accurate stream : Yes
Defeat audio cache : Yes
Make use of C2 pointers : No
Read offset correction : 48
Overread into Lead-In and Lead-Out : No
Fill up missing offset samples with silence : Yes
Delete leading and trailing silent blocks : No
Null samples used in CRC calculations : Yes
Used interface : Installed external ASPI interface
Gap handling : Appended to previous track
Used output format : User Defined Encoder
Selected bitrate : 768 kBit/s
Quality : High
Add ID3 tag : No
Command line compressor : C:Program FilesExact Audio CopyFLACFLAC.EXE
Additional command line options : -6 -V -T "ARTIST=%a" -T "TITLE=%t" -T "ALBUM=%g" -T "DATE=%y" -T "TRACKNUMBER=%n" -T "GENRE=%m" -T "COMMENT=%e" %s -o %d
TOC of the extracted CD
Track | Start | Length | Start sector | End sector
---------------------------------------------------------
1 | 0:00.00 | 5:51.31 | 0 | 26355
2 | 5:51.31 | 7:35.52 | 26356 | 60532
3 | 13:27.08 | 7:14.10 | 60533 | 93092
4 | 20:41.18 | 4:16.15 | 93093 | 112307
5 | 24:57.33 | 7:09.49 | 112308 | 144531
6 | 32:07.07 | 6:30.15 | 144532 | 173796
7 | 38:37.22 | 9:31.68 | 173797 | 216689
8 | 48:09.15 | 7:44.39 | 216690 | 251528
9 | 55:53.54 | 3:57.30 | 251529 | 269333
Track 1
Filename C:Documents and SettingsxorМои документыEasily Embarrassed - Idyllic Life1 - Time Holes.wav
Pre-gap length 0:00:02.00
Peak level 96.2 %
Track quality 100.0 %
Test CRC 75DE19C6
Copy CRC 75DE19C6
Track not present in AccurateRip database
Copy OK
Track 2
Filename C:Documents and SettingsxorМои документыEasily Embarrassed - Idyllic Life2 - Idyllic Life.wav
Peak level 96.4 %
Track quality 100.0 %
Test CRC ED05341C
Copy CRC ED05341C
Track not present in AccurateRip database
Copy OK
Track 3
Filename C:Documents and SettingsxorМои документыEasily Embarrassed - Idyllic Life3 - Little Trees And Mysteries.wav
Peak level 96.9 %
Track quality 100.0 %
Test CRC D99660DA
Copy CRC D99660DA
Track not present in AccurateRip database
Copy OK
Track 4
Filename C:Documents and SettingsxorМои документыEasily Embarrassed - Idyllic Life4 - From Water To Life.wav
Peak level 95.3 %
Track quality 100.0 %
Test CRC 9164DA12
Copy CRC 9164DA12
Track not present in AccurateRip database
Copy OK
Track 5
Filename C:Documents and SettingsxorМои документыEasily Embarrassed - Idyllic Life5 - Phenomenon.wav
Peak level 96.2 %
Track quality 100.0 %
Test CRC A9857397
Copy CRC A9857397
Track not present in AccurateRip database
Copy OK
Track 6
Filename C:Documents and SettingsxorМои документыEasily Embarrassed - Idyllic Life6 - Blood.wav
Peak level 96.1 %
Track quality 99.9 %
Test CRC 4ED07928
Copy CRC 4ED07928
Track not present in AccurateRip database
Copy OK
Track 7
Filename C:Documents and SettingsxorМои документыEasily Embarrassed - Idyllic Life7 - Mental Anguish.wav
Peak level 96.0 %
Track quality 100.0 %
Test CRC D91B6313
Copy CRC D91B6313
Track not present in AccurateRip database
Copy OK
Track 8
Filename C:Documents and SettingsxorМои документыEasily Embarrassed - Idyllic Life8 - Reincarnation.wav
Peak level 96.2 %
Track quality 100.0 %
Test CRC F0C566AD
Copy CRC F0C566AD
Track not present in AccurateRip database
Copy OK
Track 9
Filename C:Documents and SettingsxorМои документыEasily Embarrassed - Idyllic Life9 - Past Memories.wav
Peak level 96.2 %
Track quality 100.0 %
Test CRC 691D1455
Copy CRC 691D1455
Track not present in AccurateRip database
Copy OK
None of the tracks are present in the AccurateRip database
No errors occurred
End of status report
---------------------------
AUDIOCHECKER v2.0 beta (build 457) - by Dester - [email protected]
~~~~~~~~~~~~~~~~~~~~~~~~~~~~~~~~~~
Started at: воскресенье, 24. 10. 2010. - 6:33.58
9 files found
1 -===- E:музыкаНовая папкаEasily Embarrassed - Idyllic Life--------1 - Time Holes.flac
Extracted successfully
Conclusion: this track is CDDA with probability 100%
Tempfile successfully deleted.
2 -===- E:музыкаНовая папкаEasily Embarrassed - Idyllic Life--------2 - Idyllic Life.flac
Extracted successfully
Conclusion: this track is CDDA with probability 99%
Tempfile successfully deleted.
3 -===- E:музыкаНовая папкаEasily Embarrassed - Idyllic Life--------3 - Little Trees And Mysteries.flac
Extracted successfully
Conclusion: this track is CDDA with probability 100%
Tempfile successfully deleted.
4 -===- E:музыкаНовая папкаEasily Embarrassed - Idyllic Life--------4 - From Water To Life.flac
Extracted successfully
Conclusion: this track is CDDA with probability 100%
Tempfile successfully deleted.
5 -===- E:музыкаНовая папкаEasily Embarrassed - Idyllic Life--------5 - Phenomenon.flac
Extracted successfully
Conclusion: this track is CDDA with probability 100%
Tempfile successfully deleted.
6 -===- E:музыкаНовая папкаEasily Embarrassed - Idyllic Life--------6 - Blood.flac
Extracted successfully
Conclusion: this track is CDDA with probability 100%
Tempfile successfully deleted.
7 -===- E:музыкаНовая папкаEasily Embarrassed - Idyllic Life--------7 - Mental Anguish.flac
Extracted successfully
Conclusion: this track is CDDA with probability 100%
Tempfile successfully deleted.
8 -===- E:музыкаНовая папкаEasily Embarrassed - Idyllic Life--------8 - Reincarnation.flac
Extracted successfully
Conclusion: this track is CDDA with probability 100%
Tempfile successfully deleted.
9 -===- E:музыкаНовая папкаEasily Embarrassed - Idyllic Life--------9 - Past Memories.flac
Extracted successfully
Conclusion: this track is CDDA with probability 54%
Tempfile successfully deleted.
Finished at: воскресенье, 24. 10. 2010. - 6:37.56 (operation time: 0:03.58)
AUDIOCHECKER v2.0 beta (build 457) - by Dester - [email protected]
~~~~~~~~~~~~~~~~~~~~~~~~~~~~~~~~~~
-=== DO NOT EDIT THIS FILE! ===-
Path: ...Easily Embarrassed - Idyllic Life--------
1 -=- 01 - Time Holes.flac -=- CDDA (100%)
2 -=- 02 - Idyllic Life.flac -=- CDDA (99%)
3 -=- 03 - Little Trees And Mysteries.flac -=- CDDA (100%)
4 -=- 04 - From Water To Life.flac -=- CDDA (100%)
5 -=- 05 - Phenomenon.flac -=- CDDA (100%)
6 -=- 06 - Blood.flac -=- CDDA (100%)
7 -=- 07 - Mental Anguish.flac -=- CDDA (100%)
8 -=- 08 - Reincarnation.flac -=- CDDA (100%)
9 -=- 09 - Past Memories.flac -=- CDDA (54%)
Summary 94,78% CDDA
8136980
--LetitBit.net--
--DepositFiles.com--
--Hotfile.com--




Alternative download links



Related MP3 FLAC to Easily Embarrassed - Idyllic Life (2008) FLAC
Feedback
All rights reserved.
WEBBG.com © 2000-2018