Mario Schiano, Famoudou Don Moye, Marcello Melis, Giancarlo Schiaffini - Uncaged (1991)
MP3 FLAC WMA APE HD

Mario Schiano, Famoudou Don Moye, Marcello Melis, Giancarlo Schiaffini - Uncaged (1991)

  • Genre: Music, Jazz, FLAC / APE
  • Formats: MP3 FLAC WMA HD APE
  • Album Size: 1804 mb.
  • Archive: ZIP RAR
Artist: Mario Schiano, Famoudou Don Moye, Marcello Melis, Giancarlo Schiaffini
Title Of Album: Uncaged
Year Of Release: 1991
Label: Splasc(h) Records
Genre: Free Jazz, Free Improvisation
Quality: FLAC (image+.cue) + log
Bitrate: Lossless
Total Time: 46:49
Total Size: 229 Mb
Whoa! Now this is free jazz. On the Italian reed king's 28th record (recorded way back in 1991), Mario Schiano and the great Art Ensemble of Chicago drummer Famoudou Don Moye and fellow Italians Marcello Melis on bass and Giancarlo Schiaffini on trombone play one continuous session, put to tape as it was played, with safety nets removed and track numbers assigned only for the comfort of listeners.
Tracklist:
1 A 4:29
2 B 4:50
3 C 12:15
4 D 6:08
5 E 7:46
6 F 2:21
7 G 8:23
Exact Audio Copy V1.0 beta 2 from 29. April 2011
EAC extraction logfile from 30. August 2011, 15:58
Mario Schiano, Famoudou Don Moye, Marcello Melis, Giancarlo Schiaffini / Uncaged
Used drive : Optiarc DVD RW AD-7170A Adapter: 0 ID: 0
Read mode : Secure
Utilize accurate stream : Yes
Defeat audio cache : Yes
Make use of C2 pointers : No
Read offset correction : 48
Overread into Lead-In and Lead-Out : No
Fill up missing offset samples with silence : Yes
Delete leading and trailing silent blocks : No
Null samples used in CRC calculations : Yes
Used interface : Native Win32 interface for Win NT & 2000
Used output format : User Defined Encoder
Selected bitrate : 320 kBit/s
Quality : High
Add ID3 tag : No
Command line compressor : C:Program FilesExact Audio CopyFlacflac.exe
Additional command line options : -V -8 -T "Date=%year%" -T "Genre=%genre%" %source%
TOC of the extracted CD
Track | Start | Length | Start sector | End sector
---------------------------------------------------------
1 | 0:00.33 | 4:33.35 | 33 | 20542
2 | 4:33.68 | 4:50.50 | 20543 | 42342
3 | 9:24.43 | 12:20.72 | 42343 | 97914
4 | 21:45.40 | 6:13.53 | 97915 | 125942
5 | 27:59.18 | 8:02.22 | 125943 | 162114
6 | 36:01.40 | 2:21.00 | 162115 | 172689
7 | 38:22.40 | 8:24.68 | 172690 | 210557
Range status and errors
Selected range
Filename C:EACDownloadsMario Schiano, Famoudou Don Moye, Marcello Melis, Giancarlo Schiaffini - Uncaged.wav
Peak level 99.4 %
Extraction speed 4.8 X
Range quality 100.0 %
Test CRC E04D1A76
Copy CRC E04D1A76
Copy OK
No errors occurred
AccurateRip summary
Track 1 accurately ripped (confidence 1) [4871681F] (AR v1)
Track 2 accurately ripped (confidence 1) [97A21CEA] (AR v1)
Track 3 accurately ripped (confidence 1) [8AD5A4F1] (AR v1)
Track 4 accurately ripped (confidence 1) [1AF594DE] (AR v1)
Track 5 accurately ripped (confidence 1) [E4D1F98B] (AR v1)
Track 6 accurately ripped (confidence 1) [68146642] (AR v1)
Track 7 accurately ripped (confidence 1) [7E4B69A9] (AR v1)
All tracks accurately ripped
End of status report
FileSonic
Wupload



Alternative download links

DOWNLOAD

Related MP3 FLAC to Mario Schiano, Famoudou Don Moye, Marcello Melis, Giancarlo Schiaffini - Uncaged (1991)
Feedback
All rights reserved.
WEBBG.com © 2000-2018