Patrick Lamb - Soul of a Free Man (2009)
MP3 FLAC WMA APE HD

Patrick Lamb - Soul of a Free Man (2009)

Artist: Patrick Lamb
Title Of Album: Soul of a Free Man
Year Of Release: 2009
Label: Patrick Lamb Productions
Genre: Smooth-Jazz, Fusion, Vocal
Quality: APE (image+.cue) + log
Bitrate: Lossless
Total Time: 00:39:31
Total Size: 262 Mb
Saxophonist, vocalist and songwriter Patrick Lamb, who spent most of last year on tours playing back-up for Jazz & R&B greats Bobby Caldwell, Diane Schuur and Gino Vannelli, has stepped out on his own to release his own solo project “Soul of a Free Man” –a title that appropriately describes Patrick’s journey to find his own musical voice and the remarkable collaborations with his co-writer’s. The CD’s featured single is the title track, “Soul of a Free Man.”
Tracklist:
01.Back In Love
02.You Are My Everything
03.Soul Of A Free Man
04.I Remember
05.Everybody's Talkin'
06.Baby Let Me See You Smile
07.Give Them All The Love
08.We Can Make It
09.It's Love
10.You Have Made Me So Very Happy
Exact Audio Copy V0.99 prebeta 4 from 23. January 2008
Отчёт EAC об извлечении, выполненном 18. июля 2011, 19:26
Patrick Lamb / Soul of a Free Man
Дисковод: _NEC DVD_RW ND-2510A Adapter: 1 ID: 0
Режим чтения : Достоверность
Использование точного потока : Да
Отключение кэша аудио : Да
Использование указателей C2 : Нет
Коррекция смещения при чтении : 48
Способность читать области Lead-in и Lead-out : Нет
Заполнение пропущенных сэмплов тишиной : Да
Удаление блоков с тишиной в начале и конце : Нет
При вычислениях CRC использовались нулевые сэмплы : Да
Интерфейс : Встроенный Win32-интерфейс для Win NT/2000
Выходной формат : Внутренние WAV-операции
Формат сэмплов : 44.100 Гц; 16 бит; стерео
TOC извлечённого CD
Трек | Старт | Длительность | Начальный сектор | Конечный сектор
---------------------------------------------------------------------
1 | 0:00.00 | 3:30.59 | 0 | 15808
2 | 3:30.59 | 3:36.72 | 15809 | 32080
3 | 7:07.56 | 3:15.03 | 32081 | 46708
4 | 10:22.59 | 4:50.28 | 46709 | 68486
5 | 15:13.12 | 3:21.16 | 68487 | 83577
6 | 18:34.28 | 4:32.56 | 83578 | 104033
7 | 23:07.09 | 4:17.49 | 104034 | 123357
8 | 27:24.58 | 4:13.71 | 123358 | 142403
9 | 31:38.54 | 3:44.29 | 142404 | 159232
10 | 35:23.08 | 4:07.65 | 159233 | 177822
Характеристики диапазона извлечения и сообщения об ошибках
Выбранный диапазон
Имя файла E:ПРОЕКТPatrick Lamb-Soul Of A Free Man 2009Patrick Lamb - Soul of a Free Man.wav
Пиковый уровень 100.0 %
Качество диапазона 100.0 %
CRC теста 81433A9C
CRC копии 81433A9C
Копирование... OK
Ошибок не произошло
AccurateRip: сводка
Трек 1 нет в базе данных
Трек 2 нет в базе данных
Трек 3 нет в базе данных
Трек 4 нет в базе данных
Трек 5 нет в базе данных
Трек 6 нет в базе данных
Трек 7 нет в базе данных
Трек 8 нет в базе данных
Трек 9 нет в базе данных
Трек 10 нет в базе данных
Ни одного трека нет в базе AccurateRip
Конец отчёта
FileSonic
Wupload



Alternative download links

DOWNLOAD

Related MP3 FLAC to Patrick Lamb - Soul of a Free Man (2009)
Feedback
All rights reserved.
WEBBG.com © 2000-2018