Baby Lullabies - Vocal Instrumental (2009)
MP3 FLAC WMA APE HD

Baby Lullabies - Vocal Instrumental (2009)

Artist: Baby Lullabies
Title Of Album: Vocal & Instrumental
Year Of Release: 2009
Label: PLANET T
Genre: New Age, Lullaby, Relaxation
Quality: FLAC (image+.cue) + log
Bitrate: Lossless
Total Time: 58:48
Total Size: 350 Mb
Good compilation of baby lullabies.
Tracklist:
01. Brahms' Lullaby [0:02:21.41]
02. Twinkle, Twinkle, Little Star [0:02:04.49]
03. Rock-A-Bye Baby [0:02:50.12]
04. Hush, Little Baby [0:02:23.58]
05. Go To Sleep [0:03:21.14]
06. Golden Slumbers [0:02:10.59]
07. All Through The Night [0:03:10.16]
08. All The Pretty Little Horses [0:02:58.11]
09. Sleep, Baby Sleep [0:03:08.41]
10. Now The Day Is Over [0:02:18.02]
11. Hush, Little Baby - All The Pretty Little Horses Sleep [0:03:43.63]
12. Rock-A-Bye Baby - Lullaby - All Through The Night [0:05:18.30]
13. Kum Ba Yah - Dance To Your Daddy - Raisins And Almonds [0:04:57.16]
14. Twinkle, Twinkle, Little Star - Hush Now My Baby - Mother Goose Lullaby [0:04:45.39]
15. Go To Sleep - Now The Day Is Over - Star Wish [0:06:37.53]
16. Baby Bye - Baby Sleep - The Clouds - Baloo Baleerie [0:06:38.24]
Exact Audio Copy V1.0 beta 1 from 15. November 2010
EAC extraction logfile from 27. June 2011, 4:50
Baby Lullabies / Vocal & Instrumental
Used drive : PIONEER DVD-RW DVR-118L Adapter: 4 ID: 0
Read mode : Secure
Utilize accurate stream : Yes
Defeat audio cache : Yes
Make use of C2 pointers : No
Read offset correction : 6
Overread into Lead-In and Lead-Out : No
Fill up missing offset samples with silence : Yes
Delete leading and trailing silent blocks : No
Null samples used in CRC calculations : Yes
Used interface : Native Win32 interface for Win NT & 2000
Used output format : User Defined Encoder
Selected bitrate : 128 kBit/s
Quality : High
Add ID3 tag : No
Command line compressor : C:Program FilesTrader's Little HelperCmdlineAppsflac.exe
Additional command line options : --best -T "ARTIST=%a" -T "TITLE=%t" -T "ALBUM=%g" -T "DATE=%y" -T "TRACKNUMBER=%n" -T "GENRE=%m" %s
TOC of the extracted CD
Track | Start | Length | Start sector | End sector
---------------------------------------------------------
1 | 0:00.00 | 2:21.41 | 0 | 10615
2 | 2:21.41 | 2:04.49 | 10616 | 19964
3 | 4:26.15 | 2:50.12 | 19965 | 32726
4 | 7:16.27 | 2:23.58 | 32727 | 43509
5 | 9:40.10 | 3:21.14 | 43510 | 58598
6 | 13:01.24 | 2:10.59 | 58599 | 68407
7 | 15:12.08 | 3:10.16 | 68408 | 82673
8 | 18:22.24 | 2:58.11 | 82674 | 96034
9 | 21:20.35 | 3:08.41 | 96035 | 110175
10 | 24:29.01 | 2:18.02 | 110176 | 120527
11 | 26:47.03 | 3:43.63 | 120528 | 137315
12 | 30:30.66 | 5:18.30 | 137316 | 161195
13 | 35:49.21 | 4:57.16 | 161196 | 183486
14 | 40:46.37 | 4:45.39 | 183487 | 204900
15 | 45:32.01 | 6:37.53 | 204901 | 234728
16 | 52:09.54 | 6:38.24 | 234729 | 264602
Range status and errors
Selected range
Filename E:Baby Lullabies - Vocal & Instrumental.wav
Peak level 100.0 %
Extraction speed 0.2 X
Range quality 100.0 %
Test CRC 238138E4
Copy CRC 238138E4
Copy OK
No errors occurred
AccurateRip summary
Track 1 not present in database
Track 2 not present in database
Track 3 not present in database
Track 4 not present in database
Track 5 not present in database
Track 6 not present in database
Track 7 not present in database
Track 8 not present in database
Track 9 not present in database
Track 10 not present in database
Track 11 not present in database
Track 12 not present in database
Track 13 not present in database
Track 14 not present in database
Track 15 not present in database
Track 16 not present in database
None of the tracks are present in the AccurateRip database
End of status report
FileSonic
Wupload



Alternative download links

DOWNLOAD

Related MP3 FLAC to Baby Lullabies - Vocal Instrumental (2009)
Feedback
All rights reserved.
WEBBG.com © 2000-2018