Crowded House - Farewell To The World
MP3 FLAC WMA APE HD

Crowded House - Farewell To The World

Artist: Crowded House
Title Of Album: Crowded House - Farewell To The World
Year Of Release: 20 Nov 2006
Label: EMI
Genre: Rock, Pop Rock, Soft Rock
Quality: FLAC | MP3
Bitrate: lossless-image +cue +log +Booklet/SCANS | 320 kbps
Total Size: 816 Mb | 263.5 MB
If there ever was a farewell album could make one long for a reunion, this is it. Crowed House had their own personal hegemony of the airwaves in the '80s and '90s, and their final show on the steps of Sydney's Opera Plaza in 1996 shows you exactly why. This two-CD package overachieves as a live document, capturing both the high emotion of the crowd (120,000 strong) and stoicism of the band members, except for the final two songs, which find Neil Finn with a catch in his throat, fumbling over words. The entire recording is filled with memorable moments, brimming with humanity, heart, and the group's irreverent sense of humor--from dedicating song to the full moon, to inviting former band members onstage. "A Hole in the River," the gothic tune about Finn's aunt's suicide continues to haunt, while "Something So Strong" has grown up to be a self-help anthem. Farwell to the World is engaging, smart, philosophical, and sometimes even prophetic on songs like "Weather with You," when Neil Finn cautions, "You can fight the sleep, but not the dream."
--Jaan Uhelszki
Tracklist:
CD1
01. Mean To Me [0:04:11.33]
02. World Where You Live [0:03:33.05]
03. When You Come [0:05:54.29]
04. Private Universe [0:05:35.49]
05. Four Seasons In One Day [0:02:54.57]
06. Fall At Your Feet [0:03:25.66]
07. Whispers and Moans [0:04:30.25]
08. Hole In The River [0:06:47.68]
09. Better Be Home Soon [0:04:43.64]
10. Pineapple Head [0:04:04.32]
11. Distant Sun [0:04:51.66]
12. Into Temptation [0:04:49.65]
13. Everything Is Good For You [0:04:09.78]
CD2
01. Locked Out [0:03:49.00]
02. Something So Strong [0:03:51.44]
03. Sister Madly [0:04:54.20]
04. Italian Plastic [0:03:51.90]
05. Weather With You [0:05:22.45]
06. It's Only Natural [0:05:07.84]
07. There Goes God [0:04:54.20]
08. Fingers Of Love [0:05:35.88]
09. In My Command [0:04:26.89]
10. Throw Your Arms Around Me [0:02:57.74]
11. Don't Dream It's Over [0:06:22.74]
Exact Audio Copy V0.99 prebeta 4 from 23. January 2008
EAC extraction logfile from 7. June 2009, 20:25
Crowded House / Farewell To The World: Live at Sydney Opera House cd1
Used drive : PLEXTOR DVDR PX-716A Adapter: 0 ID: 0
Read mode : Secure
Utilize accurate stream : Yes
Defeat audio cache : Yes
Make use of C2 pointers : No
Read offset correction : 30
Overread into Lead-In and Lead-Out : Yes
Fill up missing offset samples with silence : Yes
Delete leading and trailing silent blocks : No
Null samples used in CRC calculations : Yes
Used interface : Native Win32 interface for Win NT & 2000
Used output format : User Defined Encoder
Selected bitrate : 128 kBit/s
Quality : High
Add ID3 tag : No
Command line compressor : C:Program FilesFLACflac.exe
Additional command line options : -8 -V -T "ARTIST=%a" -T "TITLE=%t" -T "ALBUM=%g" -T "DATE=%y" -T "TRACKNUMBER=%n" -T "GENRE=%m" -T "COMMENT=EAC FLAC -8" %s
TOC of the extracted CD
Track | Start | Length | Start sector | End sector
---------------------------------------------------------
1 | 0:00.13 | 4:11.25 | 13 | 18862
2 | 4:11.38 | 3:33.04 | 18863 | 34841
3 | 7:44.42 | 5:54.22 | 34842 | 61413
4 | 13:38.64 | 5:35.37 | 61414 | 86575
5 | 19:14.26 | 2:54.43 | 86576 | 99668
6 | 22:08.69 | 3:25.50 | 99669 | 115093
7 | 25:34.44 | 4:30.19 | 115094 | 135362
8 | 30:04.63 | 6:47.51 | 135363 | 165938
9 | 36:52.39 | 4:43.48 | 165939 | 187211
10 | 41:36.12 | 4:04.24 | 187212 | 205535
11 | 45:40.36 | 4:51.50 | 205536 | 227410
12 | 50:32.11 | 4:49.49 | 227411 | 249134
13 | 55:21.60 | 4:09.59 | 249135 | 267868
Range status and errors
Selected range
Filename E:EAC ripCrowded House - Farewell To The World (Live)CD1Crowded House - Farewell To The World Live at Sydney Opera House cd1.wav
Peak level 100.0 %
Range quality 100.0 %
Test CRC 827B573E
Copy CRC 827B573E
Copy OK
No errors occurred
AccurateRip summary
Track 1 accurately ripped (confidence 25) [D70117B6]
Track 2 accurately ripped (confidence 25) [8725F9EE]
Track 3 accurately ripped (confidence 25) [88AECAAF]
Track 4 accurately ripped (confidence 25) [7CC3BC24]
Track 5 accurately ripped (confidence 25) [C9FB316F]
Track 6 accurately ripped (confidence 25) [A2A08F2D]
Track 7 accurately ripped (confidence 25) [F928D9AC]
Track 8 accurately ripped (confidence 25) [5D7D55CE]
Track 9 accurately ripped (confidence 25) [F1372FD8]
Track 10 accurately ripped (confidence 25) [63E61E2D]
Track 11 accurately ripped (confidence 25) [2E28353B]
Track 12 accurately ripped (confidence 25) [AB8A5B8B]
Track 13 accurately ripped (confidence 24) [1713A9D1]
All tracks accurately ripped
End of status report
Exact Audio Copy V0.99 prebeta 4 from 23. January 2008
EAC extraction logfile from 7. June 2009, 21:23
Crowded House / Farewell To The World: Live at Sydney Opera House cd2
Used drive : PLEXTOR DVDR PX-716A Adapter: 0 ID: 0
Read mode : Secure
Utilize accurate stream : Yes
Defeat audio cache : Yes
Make use of C2 pointers : No
Read offset correction : 30
Overread into Lead-In and Lead-Out : Yes
Fill up missing offset samples with silence : Yes
Delete leading and trailing silent blocks : No
Null samples used in CRC calculations : Yes
Used interface : Native Win32 interface for Win NT & 2000
Used output format : User Defined Encoder
Selected bitrate : 128 kBit/s
Quality : High
Add ID3 tag : No
Command line compressor : C:Program FilesFLACflac.exe
Additional command line options : -8 -V -T "ARTIST=%a" -T "TITLE=%t" -T "ALBUM=%g" -T "DATE=%y" -T "TRACKNUMBER=%n" -T "GENRE=%m" -T "COMMENT=EAC FLAC -8" %s
TOC of the extracted CD
Track | Start | Length | Start sector | End sector
---------------------------------------------------------
1 | 0:00.13 | 3:49.00 | 13 | 17187
2 | 3:49.13 | 3:51.33 | 17188 | 34545
3 | 7:40.46 | 4:54.15 | 34546 | 56610
4 | 12:34.61 | 3:51.68 | 56611 | 74003
5 | 16:26.54 | 5:22.34 | 74004 | 98187
6 | 21:49.13 | 5:07.63 | 98188 | 121275
7 | 26:57.01 | 4:54.15 | 121276 | 143340
8 | 31:51.16 | 5:35.66 | 143341 | 168531
9 | 37:27.07 | 4:26.67 | 168532 | 188548
10 | 41:53.74 | 2:57.56 | 188549 | 201879
11 | 44:51.55 | 6:22.56 | 201880 | 230585
Range status and errors
Selected range
Filename E:EAC ripCrowded House - Farewell To The World (Live)CD2Crowded House - Farewell To The World Live at Sydney Opera House cd2.wav
Peak level 100.0 %
Range quality 100.0 %
Test CRC B103B97E
Copy CRC B103B97E
Copy OK
No errors occurred
AccurateRip summary
Track 1 accurately ripped (confidence 26) [C18EE801]
Track 2 accurately ripped (confidence 26) [6233F3A9]
Track 3 accurately ripped (confidence 26) [9E87B33F]
Track 4 accurately ripped (confidence 26) [D7B817EA]
Track 5 accurately ripped (confidence 26) [D6E2FA88]
Track 6 accurately ripped (confidence 26) [5C506DB3]
Track 7 accurately ripped (confidence 26) [76087B69]
Track 8 accurately ripped (confidence 26) [1F292ACF]
Track 9 accurately ripped (confidence 26) [F86D3C0F]
Track 10 accurately ripped (confidence 26) [49C3B748]
Track 11 accurately ripped (confidence 26) [46944720]
All tracks accurately ripped
End of status report
|



Alternative download links

Uploaded.net Rapidgator.net

Related MP3 FLAC to Crowded House - Farewell To The World
Feedback
All rights reserved.
WEBBG.com © 2000-2018