Bonnie Bianco - Just Me
MP3 FLAC WMA APE HD

Bonnie Bianco - Just Me

  • Genre: Music, Pop, FLAC / APE
  • Formats: MP3 FLAC WMA HD APE
  • Album Size: 1763 mb.
  • Archive: ZIP RAR

Free download links


Bonnie Bianco - Just Me .zip
MP3 version ZIP archive

1763 downloads at 30 mb/s

Bonnie Bianco - Just Me .zip
FLAC/APE version ZIP archive

943 downloads at 22 mb/s
Artist: Bonnie Bianco
Title Of Album: Bonnie Bianco - Just Me
Year Of Release: 11. Mai 1987
Label: Metronome
Genre: Pop
Quality: FLAC
Bitrate: lossless IMAGE+CUE +LOG +SCANS
Total Size: 393,82 Mb
Bonnie Bianco (born August 19, 1963) is an American singer and actor from the United States. She started her career in humble surroundings at the age of 10 performing in musicals, fairs, convalescent homes, hospitals, conventions, and beauty pageants. She was managed by Sam Gino and her mother Helen Bianco


Tracklist:

01. Miss You So [0:04:56.63]
02. Face In The Crowd [0:04:47.52]
03. Last Of A Dying Breed [0:03:43.30]
04. Holding Back [0:03:35.63]
05. The Heart Is A Lonely Hunter [0:03:38.70]
06. Contender For Your Love [0:03:37.32]
07. Tonight Will Last Forever [0:03:49.23]
08. Stranger In My Heart [0:03:50.47]
09. If This Is Love [0:04:04.40]
10. I Feel It Getting Stronger [0:04:48.60]
Exact Audio Copy V0.99 prebeta 5 from 4. May 2009
EAC extraction logfile from 26. May 2010, 18:31
Bonnie Bianco / Just Me
Used drive : ASUS DRW-1608P Adapter: 2 ID: 1
Read mode : Secure
Utilize accurate stream : Yes
Defeat audio cache : Yes
Make use of C2 pointers : No
Read offset correction : 48
Overread into Lead-In and Lead-Out : No
Fill up missing offset samples with silence : Yes
Delete leading and trailing silent blocks : No
Null samples used in CRC calculations : Yes
Used interface : Installed external ASPI interface
Used output format : User Defined Encoder
Selected bitrate : 1024 kBit/s
Quality : High
Add ID3 tag : No
Command line compressor : C:Program Files (x86)Exact Audio CopyFlacflac.exe
Additional command line options : -5 -V -T "ARTIST=%a" -T "TITLE=%t" -T "ALBUM=%g" -T "DATE=%y" -T "TRACKNUMBER=%n" -T "GENRE=%m" -T "COMMENT=EAC FLAC -5" %s
TOC of the extracted CD
Track | Start | Length | Start sector | End sector
---------------------------------------------------------
1 | 0:00.32 | 4:56.63 | 32 | 22294
2 | 4:57.20 | 4:47.52 | 22295 | 43871
3 | 9:44.72 | 3:43.30 | 43872 | 60626
4 | 13:28.27 | 3:35.63 | 60627 | 76814
5 | 17:04.15 | 3:38.70 | 76815 | 93234
6 | 20:43.10 | 3:37.32 | 93235 | 109541
7 | 24:20.42 | 3:49.23 | 109542 | 126739
8 | 28:09.65 | 3:50.47 | 126740 | 144036
9 | 32:00.37 | 4:04.40 | 144037 | 162376
10 | 36:05.02 | 4:48.60 | 162377 | 184036
Range status and errors
Selected range
Filename F:Bonnie Bianco - Just Me - 1987Bonnie Bianco - Just Me.wav
Peak level 78.8 %
Range quality 100.0 %
Test CRC 0EC02216
Copy CRC 0EC02216
Copy OK
No errors occurred
AccurateRip summary
Track 1 accurately ripped (confidence 11) [E237C233]
Track 2 accurately ripped (confidence 12) [35ED318B]
Track 3 accurately ripped (confidence 12) [74390C38]
Track 4 accurately ripped (confidence 11) [F1362380]
Track 5 accurately ripped (confidence 12) [DCCCD7EA]
Track 6 accurately ripped (confidence 11) [A9094D1B]
Track 7 accurately ripped (confidence 12) [60ECACAD]
Track 8 accurately ripped (confidence 12) [71E3ABE2]
Track 9 accurately ripped (confidence 11) [E85CB483]
Track 10 accurately ripped (confidence 12) [17032B27]
All tracks accurately ripped
End of status report

turbobit.net:
hotfile.com
Rapidshare:
Pass: israbox.download
ВНИМАНИЕ!!!
Рекомендуем приобрести лицензионный диск, так как все материалы выложены ИСКЛЮЧИТЕЛЬНО для ознакомления, и после того как Вы скачали бесплатно Album, вы обязаны удалить его в течение 24 часов. Этим самым Вы избегаете нарушения закона об авторском праве.
Thanks to the original Publicist "bvstudio"



Alternative download links



Related MP3 FLAC to Bonnie Bianco - Just Me
Feedback
All rights reserved.
WEBBG.com © 2000-2018