George Duke - Illusions (1995) WAV
MP3 FLAC WMA APE HD

George Duke - Illusions (1995) WAV

Artist: George Duke
Title Of Album: Illusions
Year Of Release: 1995
Label: Warner Bros. Records Inc.
Genre: Crossover Jazz, Jazz-Pop
Quality: WavPack (image+.cue) + log
Bitrate: Lossless
Total Time: 1:07:19
Total Size: 573 Mb
Tracklist:
01. Genesis - 1:33
02. 500 Miles To Go - 5:02
03. 411 - 5:12
04. Love Can Be So Cold - 5:43
05. Illusions - 5:04
06. The Simple Things - 5:19
07. Life And Times - 6:10
08. Look What We Started Now - 5:56
09. C'est La Vie - 4:54
10. Buffalo Soldiers - 4:53
11. Money - 5:19
12. No Greater Love - 4:49
13. So I'll Pretend - 7:26
Exact Audio Copy V0.99 prebeta 5 from 4. May 2009
EAC extraction logfile from 5. November 2010, 21:47
George Duke / Illusions
Used drive : HL-DT-STDVD-RAM GSA-H55N Adapter: 0 ID: 2
Read mode : Secure
Utilize accurate stream : Yes
Defeat audio cache : Yes
Make use of C2 pointers : No
Read offset correction : 102
Overread into Lead-In and Lead-Out : Yes
Fill up missing offset samples with silence : Yes
Delete leading and trailing silent blocks : No
Null samples used in CRC calculations : Yes
Used interface : Installed external ASPI interface
Used output format : User Defined Encoder
Selected bitrate : 128 kBit/s
Quality : High
Add ID3 tag : No
Command line compressor : G:Program FilesExact Audio CopyEncoderwavpack.exe
Additional command line options : -hm -w "[email protected]:WAV%a - %g.cue" -w "Year=%y" -w "Genre=%m" %s %d
TOC of the extracted CD
Track | Start | Length | Start sector | End sector
---------------------------------------------------------
1 | 0:00.00 | 1:33.07 | 0 | 6981
2 | 1:33.07 | 5:01.48 | 6982 | 29604
3 | 6:34.55 | 5:12.32 | 29605 | 53036
4 | 11:47.12 | 5:43.08 | 53037 | 78769
5 | 17:30.20 | 5:03.45 | 78770 | 101539
6 | 22:33.65 | 5:18.52 | 101540 | 125441
7 | 27:52.42 | 6:09.53 | 125442 | 153169
8 | 34:02.20 | 5:56.20 | 153170 | 179889
9 | 39:58.40 | 4:53.50 | 179890 | 201914
10 | 44:52.15 | 4:53.30 | 201915 | 223919
11 | 49:45.45 | 5:19.25 | 223920 | 247869
12 | 55:04.70 | 4:48.45 | 247870 | 269514
13 | 59:53.40 | 7:26.12 | 269515 | 302976
Range status and errors
Selected range
Filename F:WAVGeorge Duke - Illusions.wav
Peak level 100.0 %
Range quality 100.0 %
Test CRC 878950B5
Copy CRC 878950B5
Copy OK
No errors occurred
AccurateRip summary
Track 1 accurately ripped (confidence 16) [2FA168AE]
Track 2 accurately ripped (confidence 16) [75974789]
Track 3 accurately ripped (confidence 16) [137C7654]
Track 4 accurately ripped (confidence 16) [20C7D5AE]
Track 5 accurately ripped (confidence 16) [EB3D3D0D]
Track 6 accurately ripped (confidence 16) [5785EACA]
Track 7 accurately ripped (confidence 16) [E8F01469]
Track 8 accurately ripped (confidence 16) [2B877132]
Track 9 accurately ripped (confidence 16) [67F00893]
Track 10 accurately ripped (confidence 16) [8BD55D18]
Track 11 accurately ripped (confidence 16) [7541A656]
Track 12 accurately ripped (confidence 16) [9D60AC9E]
Track 13 accurately ripped (confidence 16) [2DA50A71]
All tracks accurately ripped
End of status report
FileSonic.com
Turbobit.net



Alternative download links

DOWNLOAD

Related MP3 FLAC to George Duke - Illusions (1995) WAV
Feedback
All rights reserved.
WEBBG.com © 2000-2018