Warrant - Dog Eat Dog (Japan Release +1) (1992)
MP3 FLAC WMA APE HD

Warrant - Dog Eat Dog (Japan Release +1) (1992)

Artist: Warrant
Title Of Album: Dog Eat Dog (Japan Release)
Year Of Release: 1992
Label: Sony Music Entertainment
Genre: Hard Rock
Quality: FLAC (image+.cue) + log
Bitrate: Lossless
Total Time: 49:40
Total Size: 402 Mb
Tracklist:
1. Machine Gun
2. The Hole In My Wall
3. April 2031
4. Andy Warhol Was Right
5. Bonfire
6. The Bitter Pill
7. Hollywood (So Far, So Good)
8. All My Bridges Are Burning
9. Quicksand
10. Let It Rain
11. Inside Out
12. Sad Theresa
13. Lincolns, Mercurys And Fords
Exact Audio Copy V1.0 beta 1 from 15. November 2010
EAC extraction logfile from 27. February 2011, 15:27
Warrant / Dog Eat Dog
Used drive : Optiarc DVD-ROM DDU1675S Adapter: 4 ID: 0
Read mode : Secure
Utilize accurate stream : Yes
Defeat audio cache : Yes
Make use of C2 pointers : No
Read offset correction : 6
Overread into Lead-In and Lead-Out : No
Fill up missing offset samples with silence : Yes
Delete leading and trailing silent blocks : No
Null samples used in CRC calculations : Yes
Used interface : Installed external ASPI interface
Used output format : User Defined Encoder
Selected bitrate : 1024 kBit/s
Quality : High
Add ID3 tag : No
Command line compressor : D:Rec InstalllosslesslosslessExact Audio Copy 0.9b4 + APE WV & FLAC EncodersFLAC.EXE
Additional command line options : -8 -V %s
TOC of the extracted CD
Track | Start | Length | Start sector | End sector
---------------------------------------------------------
1 | 0:00.00 | 3:44.15 | 0 | 16814
2 | 3:44.15 | 3:30.22 | 16815 | 32586
3 | 7:14.37 | 5:05.10 | 32587 | 55471
4 | 12:19.47 | 3:37.30 | 55472 | 71776
5 | 15:57.02 | 4:20.70 | 71777 | 91346
6 | 20:17.72 | 4:06.55 | 91347 | 109851
7 | 24:24.52 | 3:46.45 | 109852 | 126846
8 | 28:11.22 | 3:37.05 | 126847 | 143126
9 | 31:48.27 | 3:57.70 | 143127 | 160971
10 | 35:46.22 | 4:15.70 | 160972 | 180166
11 | 40:02.17 | 3:40.18 | 180167 | 196684
12 | 43:42.35 | 3:25.60 | 196685 | 212119
13 | 47:08.20 | 2:30.05 | 212120 | 223374
Range status and errors
Selected range
Filename G:# MYWarrant - Dog Eat Dog (Japan Release +1) Warrant - Dog Eat Dog.wav
Peak level 100.0 %
Extraction speed 0.2 X
Range quality 100.0 %
Test CRC E0447AC6
Copy CRC E0447AC6
Copy OK
No errors occurred
AccurateRip summary
Track 1 accurately ripped (confidence 1) [C79F0128]
Track 2 accurately ripped (confidence 1) [9B8AEFC1]
Track 3 accurately ripped (confidence 1) [10C3FCDF]
Track 4 accurately ripped (confidence 1) [E7307793]
Track 5 accurately ripped (confidence 1) [179FC989]
Track 6 accurately ripped (confidence 1) [2CF59D21]
Track 7 accurately ripped (confidence 1) [7605EAAB]
Track 8 accurately ripped (confidence 1) [2DE61019]
Track 9 accurately ripped (confidence 1) [4F746682]
Track 10 accurately ripped (confidence 1) [91FBA4B2]
Track 11 accurately ripped (confidence 1) [BB23C603]
Track 12 accurately ripped (confidence 1) [6F8ADBBE]
Track 13 accurately ripped (confidence 1) [0132DE56]
All tracks accurately ripped
End of status report
FileSonic.com
Turbobit.net



Alternative download links

DOWNLOAD

Related MP3 FLAC to Warrant - Dog Eat Dog (Japan Release +1) (1992)
Feedback
All rights reserved.
WEBBG.com © 2000-2018