John Coltrane - John Coltrane And Ray Draper And Mal Waldron (2000)
MP3 FLAC WMA APE HD

John Coltrane - John Coltrane And Ray Draper And Mal Waldron (2000)

  • Genre: Music, Jazz, FLAC / APE
  • Formats: MP3 FLAC WMA HD APE
  • Album Size: 1278 mb.
  • Archive: ZIP RAR
Artist: John Coltrane
Title Of Album: John Coltrane And Ray Draper And Mal Waldron
Year Of Release: 2000
Label: A Group
Genre: Hard-Bop
Quality: APE (image+.cue) + log
Bitrate: Lossless
Total Time: 60:51
Total Size: 346 Mb
John William Coltrane (aka "Trane"; September 23, 1926 – July 17, 1967) was an American jazz saxophonist and composer. Working in the bebop and hard bop idioms early in his career, Coltrane helped pioneer the use of modes in jazz and later was at the forefront of free jazz. He was prolific, organizing at least fifty recording sessions as a leader during his recording career, and appeared as a sideman on many other albums, notably with trumpeter Miles Davis and pianist Thelonious Monk.
Tracklist:
1. Under Paris Skies
2. Two Sons
3. Clifford's Kappa
4. Filide
5. Paul's Pal
6. Blue Calypso
7. The Way You Look Tonight
8. From This Moment On
9. One By One
Exact Audio Copy V0.99 prebeta 5 from 4. May 2009
EAC extraction logfile from 16. May 2011, 23:34
John Coltrane / John Coltrane And Ray Draper And Mal Waldron
Used drive : Optiarc DVD RW AD-5200S Adapter: 0 ID: 1
Read mode : Secure
Utilize accurate stream : Yes
Defeat audio cache : Yes
Make use of C2 pointers : No
Read offset correction : 48
Overread into Lead-In and Lead-Out : No
Fill up missing offset samples with silence : Yes
Delete leading and trailing silent blocks : No
Null samples used in CRC calculations : Yes
Used interface : Native Win32 interface for Win NT & 2000
Used output format : Internal WAV Routines
Sample format : 44.100 Hz; 16 Bit; Stereo
TOC of the extracted CD
Track | Start | Length | Start sector | End sector
---------------------------------------------------------
1 | 0:00.00 | 7:48.72 | 0 | 35171
2 | 7:48.72 | 5:24.55 | 35172 | 59526
3 | 13:13.52 | 9:18.15 | 59527 | 101391
4 | 22:31.67 | 7:16.64 | 101392 | 134155
5 | 29:48.56 | 7:16.52 | 134156 | 166907
6 | 37:05.33 | 9:00.55 | 166908 | 207462
7 | 46:06.13 | 8:27.17 | 207463 | 245504
8 | 54:33.30 | 6:17.24 | 245505 | 273803
9 | 60:50.54 | 9:41.12 | 273804 | 317390
Range status and errors
Selected range
Filename H:FOSMY_MUSICJohn Coltrane And Ray Draper And Mal WaldronJohn Coltrane And Ray Draper And Mal Waldron.wav
Peak level 99.9 %
Range quality 100.0 %
Test CRC 42859347
Copy CRC 42859347
Copy OK
No errors occurred
End of status report
FileSonic
Turbobit



Alternative download links

DOWNLOAD

Related MP3 FLAC to John Coltrane - John Coltrane And Ray Draper And Mal Waldron (2000)
Feedback
All rights reserved.
WEBBG.com © 2000-2018