Isaac Hayes - Chocolate Chip (19752016) HDtracks
MP3 FLAC WMA APE HD

Isaac Hayes - Chocolate Chip (19752016) HDtracks

Artist: Isaac Hayes
Title: Chocolate Chip
Year Of Release: 2016
Label: Stax Records
Genre: R&B, Soul/Funk, Disco
Quality: FLAC (tracks) [24Bit/192kHz]
Total Time: 40:26
Total Size: 1,75 Gb (Digital booklet)
WebSite:

"Chocolate Chip" is the seventh studio album by American soul musician Isaac Hayes. It was released in 1975 by ABC Records through Hayes' own imprint, Hot Buttered Soul Records, marking Hayes' first release after leaving the then-financially troubled Stax label. The album was Hayes's segue into the emerging disco scene and featured horns and layered beats, while maintaining his traditional soulful vocals. Chocolate Chip garnered two top 20 singles and was Hayes's last hit album in the 1970s. ~Wikipedia~
A fine mid-'70s album on which Isaac Hayes adapted to the disco era. His productions were already ideal for dance floors, and he now updated his charts to include some stomping segments with horns and layered beats, while maintaining his soulful vocals on both up-tempo tunes and ballads. This album got two Top 20 hits for Hayes and was his last really big hit album in the '70s. ~Review by Ron Wynn~
Release of this album: 1975, June [LP ABC Records, Cat.# ABCD-874, USA]
Release of this HDtracks edition: 2016 [Label: Stax Records]
(p)(c) 2016 Concord Music Group, Inc.

Credits:

Alto Saxophone, Flute – Bill Easley, Emerson Able
Baritone Saxophone, Flute – Floyd Newman
Bass Guitar – Erroll Thomas
Congas – Jimmy "Congalou" Thompson
Design [Album], Art Direction – Martin Donald
Drums, Tambourine – Willie Cole, Willie Hall
Electric Piano [Fender Rhodes], Keyboards [Rmi Keyboard] – Lester Snell
Engineer – Roosevelt "Head" Green
Engineer [Remix] – Dave Purple, Isaac Hayes
Guitar – Charles "Skip" Pitts, William "Boots" Vaughn
Mastered By – Lanky Linstrot
Photography By – Fred Valentine
Piano [Acoustic], Electric Piano [Fender Rhodes], Keyboards [Rmi Keyboard], Computer, Bells [Concert] – Isaac Hayes
Producer, Arranged By – Isaac Hayes
Tenor Saxophone, Flute – Darnell Smith, Lewis Collins, Tommy William
Trombone – Jack Hale, Jackie Thomas
Trumpet – Ben Cauley, Mickey "Shine" Gregory, William "Nookie" Taylor


Tracklist:

01. "That Loving Feeling" (06:35)
02. "Body Language" (05:30)
03. "Chocolate Chip" (05:31)
04. "Chocolate Chip" (Instrumental) (05:33)
05. "I Want To Make Love To You So Bad" (04:16)
06. "Come Live With Me" (06:31)
07. "I Can't Turn Around" (06:30)

All songs written by Isaac Hayes.

Recorded and remixed at Hot Buttered Soul Recording Studio, Memphis, Tennessee.
Mastered at ABC Recording Studios, Inc.


--------------------------------------------------------------------------------
Analyzed: Isaac Hayes / Chocolate Chip
--------------------------------------------------------------------------------

DR Peak RMS Duration Track
--------------------------------------------------------------------------------
DR13 -0.10 dB -15.04 dB 6:35 01-That Loving Feeling
DR14 -0.26 dB -15.48 dB 5:30 02-Body Language
DR13 -0.21 dB -14.70 dB 5:31 03-Chocolate Chip
DR14 -0.23 dB -15.08 dB 5:33 04-Chocolate Chip
DR12 -0.18 dB -13.55 dB 4:16 05-I Want To Make Love To You So Bad
DR13 0.00 dB -14.70 dB 6:31 06-Come Live With Me
DR12 -0.04 dB -14.00 dB 6:30 07-I Can't Turn Around
--------------------------------------------------------------------------------

Number of tracks: 7
Official DR value: DR13

Samplerate: 192000 Hz
Channels: 2
Bits per sample: 24
Bitrate: 5721 kbps
Codec: FLAC
================================================================================

FLAC 24/192 DOWNLOAD ~ Download 24/192 FLAC

Turbobit
|

password: BlondStyle



Alternative download links

Part 1 Part 2

Related MP3 FLAC to Isaac Hayes - Chocolate Chip (19752016) HDtracks
Feedback
All rights reserved.
WEBBG.com © 2000-2018